#TITLE:Queen Of Love;
#SUBTITLE:;
#ARTIST:Wild Side;
#TITLETRANSLIT:;
#SUBTITLETRANSLIT:;
#ARTISTTRANSLIT:;
#CREDIT:;
#BANNER:;
#BACKGROUND:;
#LYRICSPATH:;
#CDTITLE:;
#MUSIC:Queen Of Love.mp3;
#MUSICLENGTH:85.428;
#OFFSET:-1.340;
#SAMPLESTART:42.125;
#SAMPLELENGTH:12.000;
#SELECTABLE:YES;
#BPMS:0.000=139.960;
#STOPS:;
#BGCHANGES:;
#FIRSTBEAT:16.000;

#LASTBEAT:192.000;

#SONGFILENAME:Songs/ERICth The 3rd/Queen Of Love/Queen of Love.sm;

#HASMUSIC:1;

#HASBANNER:0;


//---------------dance-single - MANIAC----------------
#NOTES:
     dance-single:
     MANIAC:
     hard:
     8:
     0.569,0.674,0.445,0.059,0.088,297.000,38.000,5.000,0.000,0.000:

0000
0000
0000
0000
,
0000
0000
0000
0000
,
0000
0000
0000
0000
,
0000
0000
0000
0000
,
0010
0000
0001
0000
0100
0000
0001
0100
0001
0000
0001
0000
0001
0000
0000
0000
,
0010
0000
1000
0000
0100
0000
1000
0100
1000
0000
1000
0000
1000
0000
0000
0000
,
0100
0000
0001
0000
0010
0000
0001
1000
0001
0000
0001
0000
0001
0000
0000
0000
,
0100
0000
1000
0000
0010
0000
1000
0001
1000
0000
1000
0000
1000
0000
0000
0000
,
1001
0000
1001
0000
1000
0100
0010
0100
,
1000
0000
0000
1000
0000
0000
1000
0000
0000
0000
0010
0000
0010
0000
0000
0000
,
0110
0000
0110
0000
1000
0100
0010
0001
,
0010
0000
0000
0010
0000
0000
0010
0000
0000
0000
1000
0000
1000
0000
0000
0000
,
1010
0000
0101
0000
1000
0100
1000
0010
,
1000
0100
1000
0001
1000
0001
0100
0001
,
0010
0000
0000
0010
0000
0000
0022
0000
0000
0000
0000
0000
0033
0000
0000
0000
,
1000
0000
0100
0000
1000
0000
1000
0100
0010
0000
0010
0000
0011
0000
0000
0000
,
1010
0000
1010
0000
1000
0001
0010
1000
,
0010
0000
0000
0001
0000
0000
1000
0000
0000
0000
0001
0000
0001
0000
0000
0000
,
0110
0000
0101
0000
1000
0100
0010
0010
,
0100
0000
0000
0100
0000
0000
0100
0000
0000
0000
0010
0000
0010
0000
0000
0000
,
1000
0000
1000
0000
0001
1000
0010
0100
,
0010
1000
0001
0100
0100
0100
0001
0100
,
1000
0000
0000
1000
0000
0000
2000
0000
0000
0000
0000
0000
0000
0000
0000
0000
,
0001
0000
0000
0000
3001
0000
0000
1000
,
1100
0100
0010
0001
0011
0001
1000
0010
,
1010
0010
0100
0010
0001
0010
1000
0010
,
0110
0100
0001
1000
1001
0100
0010
0001
,
0011
0001
1000
0001
1001
0110
1001
1000
,
1100
0100
0010
0001
0011
0001
1000
0010
,
1010
0010
0100
0010
0001
0010
1000
0010
,
0110
0100
0001
1000
1001
0100
0010
0001
,
0011
0001
1000
0001
1001
0011
1000
1000
,
0200
0001
0001
0001
,
0301
1000
0100
0001
,
0020
1000
1000
1000
,
1030
0001
0100
1000
,
0010
0000
0001
0000
0100
0000
0001
0100
0001
0000
0001
0000
0001
0000
0000
0000
,
0010
0000
1000
0000
0100
0000
1000
0100
1000
0000
1000
0000
1000
0000
0000
0000
,
0100
0000
0001
0000
0010
0000
0001
1000
0001
0000
0001
0000
0001
0000
0000
0000
,
0100
0000
1000
0000
0010
0000
1000
0001
1000
0000
1000
0000
1000
0000
0000
0000
,
1001
0100
0010
0001
1000
0100
1000
0010
,
0110
0010
0001
0010
1000
0100
1000
0100
,
0110
0001
0100
1000
0100
1000
0001
1000
,
1001
0010
0010
0100
0100
0001
0001
1000
,
1001
0100
0010
0001
1000
0100
1000
0010
,
0110
0010
0001
0010
1000
0100
1000
0100
,
0110
0001
0100
1000
0100
1000
0001
1000
,
1001
0010
0010
0100
0100
0001
0001
0000
,
1100
0000
0000
0000
,;

//---------------dance-single - ANOTHER----------------
#NOTES:
     dance-single:
     ANOTHER:
     medium:
     6:
     0.375,0.478,0.059,0.000,0.000,219.000,5.000,0.000,0.000,0.000:

0000
0000
0000
0000
,
0000
0000
0000
0000
,
0000
0000
0000
0000
,
0000
0000
0000
0000
,
0001
0000
1000
0000
0100
1000
0010
0000
,
0100
0000
1000
0000
0001
0010
0001
0000
,
0100
0000
0001
0000
0100
1000
0010
0000
,
0001
0000
0010
0001
0100
0001
0100
0000
,
0001
0000
1000
0000
0100
1000
0010
1000
,
0001
0001
0001
0000
,
0100
0000
1000
0000
0010
0100
0001
0010
,
0001
1000
0001
0000
,
0100
0000
0010
0000
0100
1000
0010
0100
,
0010
1000
0001
0010
0001
1000
0100
1000
,
0001
1000
0000
0000
,
0001
1000
0000
0000
,
0100
0000
0010
0000
0010
1000
0100
0010
,
0100
0010
0001
0000
,
0010
0000
1000
0000
0001
0010
0001
1000
,
0100
0001
1000
0000
,
1000
0100
0001
0100
1000
0010
0001
0010
,
1000
0100
0001
0100
1000
0010
1000
0100
,
1000
0001
1000
0001
,
0001
0001
0001
0001
0001
0000
0000
0000
,
1001
0000
0000
0100
0010
0000
0000
0001
,
1000
0000
0000
0010
1000
0100
0010
0001
,
1000
0000
0000
0100
1000
0000
0000
0010
,
1000
0000
0000
0001
0010
0001
1000
0000
,
0010
0000
0000
0100
1000
0000
0000
0001
,
0010
0000
0000
0100
0010
0001
1000
0000
,
0100
0000
0000
1000
0100
0000
0000
0001
,
0100
0000
0000
1000
0100
0010
0100
1000
,
0001
1000
0100
0010
,
0001
1000
0010
1000
0100
1000
1001
0000
,
0001
0000
0100
1000
,
0010
1000
0001
0010
0001
0001
1001
0000
,
0000
0001
0010
0100
,
1000
0010
1000
0001
1000
0000
0001
0000
,
0001
0000
0100
0000
0010
0001
0010
0000
,
0001
1000
0001
1000
0001
1000
1001
0000
,
0100
0010
0100
0010
,
0001
0000
1000
0000
0001
0000
1000
0010
,
1000
0001
0100
0010
,
0001
0000
1000
0000
0100
0000
0010
1000
,
0100
0001
0100
0010
,
0001
1000
0010
0100
,
0010
0000
1000
0010
1000
0000
0010
1000
,
0010
0000
0001
1000
0001
1000
0001
0000
,
1001
0000
0000
0000
,;

//---------------dance-single - BASIC----------------
#NOTES:
     dance-single:
     BASIC:
     easy:
     4:
     0.100,0.120,0.047,0.000,0.000,56.000,4.000,0.000,0.000,0.000:

0000
0000
0000
0000
,
0000
0000
0000
0000
,
0000
0000
0000
0000
,
0000
0000
0000
0000
,
0001
0000
1000
0000
,
0001
1000
0001
0000
,
0010
0000
0100
0000
,
0010
0100
0010
0000
,
0010
0000
1000
0000
,
0100
0100
0100
0000
,
0010
0000
0001
0000
,
0100
0100
0100
0000
,
0011
0000
1100
0000
,
0011
0000
1010
0000
,
0100
0010
0100
0000
,
0010
0100
0010
0000
,
0010
1000
0100
0100
,
0100
0100
0100
0000
,
0010
0001
0100
0100
,
0100
0100
0100
0000
,
0010
0010
1000
1000
,
0010
0010
0001
0001
,
0010
0010
0100
0100
,;
